Format profile : QuickTime
Codec ID : qt   0000.00 (qt  )
File size : 9.39 GiB
Duration : 4mn 55s
Overall bit rate mode : Variable
Overall bit rate : 273 Mbps
Movie name : Projet sans titre 1
Description : Cette vidéo traite de Projet sans titre 1
Encoded date : UTC 2014-07-11 09:41:13
Tagged date : UTC 2014-07-11 09:42:18
Writing library : Apple QuickTime
com.apple.quicktime.keywords : 10juillet,9juillet
com.apple.quicktime.author : David
com.apple.quicktime.title : Projet sans titre 1
Video
ID : 1
Format : ProRes
Format version : Version 0
Format profile : 422
Codec ID : apcn
Duration : 4mn 55s
Bit rate mode : Variable
Bit rate : 270 Mbps
Width : 1 920 pixels
Height : 1 080 pixels
Display aspect ratio : 16:9
Frame rate mode : Constant
Frame rate : 60.000 fps
Color space : YUV
Chroma subsampling : 4:2:2
Scan type : Progressive
Bits/(Pixel*Frame) : 2.173
Stream size : 9.30 GiB (99%)
Title : Core Media Video
Writing library : Apple
Encoded date : UTC 2014-07-11 09:41:13
Tagged date : UTC 2014-07-11 09:42:18
Color primaries : BT.709
Transfer characteristics : BT.709
Matrix coefficients : BT.709
matrix_coefficients_Original : BT.709
Audio
ID : 2
Format : PCM
Format settings, Endianness : Little
Format settings, Sign : Signed
Codec ID : in24
Duration : 4mn 55s
Bit rate mode : Constant
Bit rate : 2 304 Kbps
Channel(s) : 2 channels
Channel positions : Front: L R
Sampling rate : 48.0 KHz
Bit depth : 24 bits
Stream size : 81.2 MiB (1%)
Title : Core Media Audio
Encoded date : UTC 2014-07-11 09:41:13
Tagged date : UTC 2014-07-11 09:42:18
Other
ID : 3
Type : Time code
Format : QuickTime TC
Duration : 4mn 55s
Time code of first frame : 00:00:00:00
Time code, striped : Yes
Title : Core Media Time Code
Encoded date : UTC 2014-07-11 09:41:13
Tagged date : UTC 2014-07-11 09:42:18

anticosti

C$400.00Price