Format profile : QuickTime
Codec ID : qt   0000.00 (qt  )
File size : 15.3 GiB
Duration : 3mn 22s
Overall bit rate mode : Variable
Overall bit rate : 649 Mbps
Encoded date : UTC 2017-10-20 01:29:37
Tagged date : UTC 2017-10-20 01:47:47
Writing library : Apple QuickTime
Video
ID : 1
Format : ProRes
Format version : Version 0
Format profile : 422 HQ
Codec ID : apch
Duration : 3mn 22s
Bit rate mode : Variable
Bit rate : 647 Mbps
Width : 3 840 pixels
Height : 2 160 pixels
Display aspect ratio : 16:9
Frame rate mode : Constant
Frame rate : 23.976 (24000/1001) fps
Color space : YUV
Chroma subsampling : 4:2:2
Scan type : Progressive
Bits/(Pixel*Frame) : 3.255
Stream size : 15.3 GiB (100%)
Title : Core Media Video
Writing library : abm0
Encoded date : UTC 2017-10-20 01:29:37
Tagged date : UTC 2017-10-20 01:47:47
Color primaries : BT.709
Transfer characteristics : BT.709
Matrix coefficients : BT.709
matrix_coefficients_Original : BT.709
Audio
ID : 2
Format : PCM
Format settings : Little / Signed
Format settings, Endianness : Little
Format settings, Sign : Signed
Codec ID : sowt
Duration : 3mn 22s
Bit rate mode : Constant
Bit rate : 1 536 Kbps
Channel(s) : 2 channels
Channel positions : Front: L R
Sampling rate : 48.0 KHz
Bit depth : 16 bits
Stream size : 37.1 MiB (0%)
Title : Core Media Audio
Encoded date : UTC 2017-10-20 01:29:37
Tagged date : UTC 2017-10-20 01:47:47
Other
ID : 3
Type : Time code
Format : QuickTime TC
Duration : 3mn 22s
Time code of first frame : 15:22:27:00
Time code, striped : Yes
Title : Core Media Time Code
Encoded date : UTC 2017-10-20 01:29:37
Tagged date : UTC 2017-10-20 01:47:47

Casino-de-montreal-1

C$100.00Price