Format profile : QuickTime
Codec ID : qt   0000.00 (qt  )
File size : 490 MiB
Duration : 1mn 16s
Overall bit rate : 53.8 Mbps
Movie name : cathedral
Description : This video is about cathedral
Encoded date : UTC 2017-05-21 02:04:59
Tagged date : UTC 2017-05-21 02:09:43
Writing library : Apple QuickTime
com.apple.quicktime.keywords : 2017-05-06
com.apple.quicktime.author : David Etienne Durivage
com.apple.quicktime.title : cathedral
Video
ID : 1
Format : AVC
Format/Info : Advanced Video Codec
Format profile : High@L5.2
Format settings, CABAC : Yes
Format settings, ReFrames : 2 frames
Format settings, GOP : M=2, N=12
Codec ID : avc1
Codec ID/Info : Advanced Video Coding
Duration : 1mn 16s
Bit rate : 53.7 Mbps
Width : 4 096 pixels
Height : 2 160 pixels
Display aspect ratio : 1.896
Frame rate mode : Constant
Frame rate : 23.976 (24000/1001) fps
Color space : YUV
Chroma subsampling : 4:2:0
Bit depth : 8 bits
Scan type : Progressive
Bits/(Pixel*Frame) : 0.253
Stream size : 489 MiB (100%)
Title : Core Media Video
Encoded date : UTC 2017-05-21 02:05:00
Tagged date : UTC 2017-05-21 02:09:43
Color range : Limited
Color primaries : BT.709
Transfer characteristics : BT.709
Matrix coefficients : BT.709
Audio
ID : 2
Format : AAC
Format/Info : Advanced Audio Codec
Format profile : LC
Codec ID : 40
Duration : 1mn 16s
Source duration : 1mn 16s
Bit rate mode : Constant
Bit rate : 2 250 bps
Nominal bit rate : 128 Kbps
Channel(s) : 2 channels
Channel positions : Front: L R
Sampling rate : 48.0 KHz
Frame rate : 46.875 fps (1024 spf)
Compression mode : Lossy
Stream size : 21.0 KiB (0%)
Source stream size : 21.0 KiB (0%)
Title : Core Media Audio
Encoded date : UTC 2017-05-21 02:05:00
Tagged date : UTC 2017-05-21 02:09:43
Other
ID : 3
Type : Time code
Format : QuickTime TC
Duration : 1mn 16s
Time code of first frame : 00:00:00:00
Time code, striped : Yes
Title : Core Media Time Code
Encoded date : UTC 2017-05-21 02:05:00
Tagged date : UTC 2017-05-21 02:09:43

Cathedral-Chris-Church

C$100.00Price