Drone: Inspire 2

Camera: DJI X7

Format: Prores 422 - Log

Format profile : QuickTime
Codec ID : qt   0000.00 (qt  )
File size : 4.77 GiB
Duration : 1mn 0s
Overall bit rate mode : Variable
Overall bit rate : 679 Mbps
Encoded date : UTC 2017-10-24 15:27:35
Tagged date : UTC 2017-10-24 15:30:41
Writing library : Apple QuickTime
Video
ID : 1
Format : ProRes
Format version : Version 0
Format profile : 422 HQ
Codec ID : apch
Duration : 1mn 0s
Bit rate mode : Variable
Bit rate : 677 Mbps
Width : 3 840 pixels
Height : 2 160 pixels
Display aspect ratio : 16:9
Frame rate mode : Constant
Frame rate : 24.000 fps
Color space : YUV
Chroma subsampling : 4:2:2
Scan type : Progressive
Bits/(Pixel*Frame) : 3.403
Stream size : 4.76 GiB (100%)
Title : Core Media Video
Writing library : abm0
Encoded date : UTC 2017-10-24 15:27:35
Tagged date : UTC 2017-10-24 15:30:41
Color primaries : BT.709
Transfer characteristics : BT.709
Matrix coefficients : BT.709
Audio
ID : 2
Format : PCM
Format settings : Little / Signed
Format settings, Endianness : Little
Format settings, Sign : Signed
Codec ID : lpcm
Duration : 1mn 0s
Bit rate mode : Constant
Bit rate : 1 536 Kbps
Channel(s) : 2 channels
Channel positions : Front: L R
Sampling rate : 48.0 KHz
Bit depth : 16 bits
Stream size : 11.1 MiB (0%)
Title : Core Media Audio
Encoded date : UTC 2017-10-24 15:27:35
Tagged date : UTC 2017-10-24 15:30:41
Other
ID : 3
Type : Time code
Format : QuickTime TC
Duration : 1mn 0s
Time code of first frame : 09:58:22:00
Time code, striped : Yes
Title : Core Media Time Code
Encoded date : UTC 2017-10-24 15:27:35
Tagged date : UTC 2017-10-24 15:30:41

Centre-Bell-2

C$300.00Price