Format profile : QuickTime
Codec ID : qt   0000.00 (qt  )
File size : 2.28 GiB
Duration : 36s 370ms
Overall bit rate mode : Variable
Overall bit rate : 540 Mbps
Movie name : Québec-Hiver
Description : Cette vidéo traite de P1010059
Encoded date : UTC 2015-04-22 04:46:41
Tagged date : UTC 2015-04-22 04:47:13
Writing library : Apple QuickTime
com.apple.quicktime.keywords : FPQ,Projet sans titre
com.apple.quicktime.author : David
com.apple.quicktime.title : Québec-Hiver
Video
ID : 1
Format : ProRes
Format version : Version 0
Format profile : 422
Codec ID : apcn
Duration : 36s 370ms
Bit rate mode : Variable
Bit rate : 537 Mbps
Width : 3 840 pixels
Height : 2 160 pixels
Display aspect ratio : 16:9
Frame rate mode : Constant
Frame rate : 29.970 (30000/1001) fps
Color space : YUV
Chroma subsampling : 4:2:2
Scan type : Progressive
Bits/(Pixel*Frame) : 2.159
Stream size : 2.27 GiB (99%)
Title : Core Media Video
Writing library : Apple
Encoded date : UTC 2015-04-22 04:46:41
Tagged date : UTC 2015-04-22 04:47:13
Color primaries : BT.709
Transfer characteristics : BT.709
Matrix coefficients : BT.709
Audio
ID : 2
Format : PCM
Format settings, Endianness : Little
Format settings, Sign : Signed
Codec ID : in24
Duration : 36s 370ms
Source duration : 37s 37ms
Bit rate mode : Constant
Bit rate : 2 304 Kbps
Channel(s) : 2 channels
Channel positions : Front: L R
Sampling rate : 48.0 KHz
Bit depth : 24 bits
Stream size : 9.99 MiB (0%)
Source stream size : 10.2 MiB (0%)
Title : Core Media Audio
Encoded date : UTC 2015-04-22 04:46:41
Tagged date : UTC 2015-04-22 04:47:13
Other
ID : 3
Type : Time code
Format : QuickTime TC
Duration : 36s 370ms
Time code of first frame : 02:06:14;07
Time code, striped : Yes
Title : Core Media Time Code
Encoded date : UTC 2015-04-22 04:46:42
Tagged date : UTC 2015-04-22 04:47:13

Chute Montmorency - Hiver

C$100.00Price