Format profile : QuickTime
Codec ID : qt   0000.00 (qt  )
File size : 1.99 GiB
Duration : 26s 0ms
Overall bit rate mode : Variable
Overall bit rate : 658 Mbps
Encoded date : UTC 2017-10-24 15:30:42
Tagged date : UTC 2017-10-24 15:32:19
Writing library : Apple QuickTime
Video
ID : 1
Format : ProRes
Format version : Version 0
Format profile : 422 HQ
Codec ID : apch
Duration : 26s 0ms
Bit rate mode : Variable
Bit rate : 657 Mbps
Width : 3 840 pixels
Height : 2 160 pixels
Display aspect ratio : 16:9
Frame rate mode : Constant
Frame rate : 24.000 fps
Color space : YUV
Chroma subsampling : 4:2:2
Scan type : Progressive
Bits/(Pixel*Frame) : 3.298
Stream size : 1.99 GiB (100%)
Title : Core Media Video
Writing library : abm0
Encoded date : UTC 2017-10-24 15:30:42
Tagged date : UTC 2017-10-24 15:32:19
Color primaries : BT.709
Transfer characteristics : BT.709
Matrix coefficients : BT.709
Audio
ID : 2
Format : PCM
Format settings : Little / Signed
Format settings, Endianness : Little
Format settings, Sign : Signed
Codec ID : lpcm
Duration : 26s 0ms
Bit rate mode : Constant
Bit rate : 1 536 Kbps
Channel(s) : 2 channels
Channel positions : Front: L R
Sampling rate : 48.0 KHz
Bit depth : 16 bits
Stream size : 4.76 MiB (0%)
Title : Core Media Audio
Encoded date : UTC 2017-10-24 15:30:42
Tagged date : UTC 2017-10-24 15:32:19
Other
ID : 3
Type : Time code
Format : QuickTime TC
Duration : 26s 0ms
Time code of first frame : 10:00:12:03
Time code, striped : Yes
Title : Core Media Time Code
Encoded date : UTC 2017-10-24 15:30:42
Tagged date : UTC 2017-10-24 15:32:19

De-La-Montagne-St-Antoine

C$200.00Price