Format profile : QuickTime
Codec ID : qt   0000.00 (qt  )
File size : 173 MiB
Duration : 1mn 53s
Overall bit rate : 12.8 Mbps
Movie name : Drop...Chalet de la Vallée Taconique
Description : This video is about erwer
Encoded date : UTC 2017-02-22 00:48:12
Tagged date : UTC 2017-02-22 00:49:25
Writing library : Apple QuickTime
com.apple.quicktime.keywords : 2017-02-16,VT-2
com.apple.quicktime.author : David Etienne Durivage
com.apple.quicktime.title : Drop...Chalet de la Vallée Taconique
Video
ID : 1
Format : AVC
Format/Info : Advanced Video Codec
Format profile : High@L4
Format settings : CABAC / 2 Ref Frames
Format settings, CABAC : Yes
Format settings, ReFrames : 2 frames
Format settings, GOP : M=2, N=12
Codec ID : avc1
Codec ID/Info : Advanced Video Coding
Duration : 1mn 53s
Bit rate : 12.6 Mbps
Width : 1 920 pixels
Height : 1 080 pixels
Display aspect ratio : 16:9
Frame rate mode : Constant
Frame rate : 23.976 (24000/1001) fps
Color space : YUV
Chroma subsampling : 4:2:0
Bit depth : 8 bits
Scan type : Progressive
Bits/(Pixel*Frame) : 0.254
Stream size : 171 MiB (99%)
Title : Core Media Video
Encoded date : UTC 2017-02-22 00:48:13
Tagged date : UTC 2017-02-22 00:49:25
Color range : Limited
Color primaries : BT.709
Transfer characteristics : BT.709
Matrix coefficients : BT.709
Audio
ID : 2
Format : AAC
Format/Info : Advanced Audio Codec
Format profile : LC
Codec ID : mp4a-40-2
Duration : 1mn 53s
Source duration : 1mn 53s
Bit rate mode : Constant
Bit rate : 128 Kbps
Channel(s) : 2 channels
Channel positions : Front: L R
Sampling rate : 48.0 KHz
Frame rate : 46.875 fps (1024 SPF)
Compression mode : Lossy
Stream size : 1.75 MiB (1%)
Source stream size : 1.75 MiB (1%)
Title : Core Media Audio
Encoded date : UTC 2017-02-22 00:48:13
Tagged date : UTC 2017-02-22 00:49:25
Other
ID : 3
Type : Time code
Format : QuickTime TC
Duration : 1mn 53s
Time code of first frame : 00:00:00:00
Time code, striped : Yes
Title : Core Media Time Code
Encoded date : UTC 2017-02-22 00:48:13
Tagged date : UTC 2017-02-22 00:49:25

Drop...Chalet de la Vallée Taconique

C$100.00Price