Format profile : QuickTime
Codec ID : qt   0000.00 (qt  )
File size : 1.60 GiB
Duration : 27s 375ms
Overall bit rate mode : Variable
Overall bit rate : 503 Mbps
Movie name : Église-St-Siméon
Description : This video is about Untitled Project
Encoded date : UTC 2017-08-29 20:21:29
Tagged date : UTC 2017-08-29 20:21:58
Writing library : Apple QuickTime
com.apple.quicktime.keywords : 2017-08-28
com.apple.quicktime.author : David Etienne Durivage
com.apple.quicktime.title : Église-St-Siméon
Video
ID : 1
Format : ProRes
Format version : Version 0
Format profile : 422
Codec ID : apcn
Duration : 27s 375ms
Bit rate mode : Variable
Bit rate : 500 Mbps
Width : 4 096 pixels
Height : 2 160 pixels
Display aspect ratio : 1.896
Frame rate mode : Constant
Frame rate : 24.000 fps
Color space : YUV
Chroma subsampling : 4:2:2
Scan type : Progressive
Bits/(Pixel*Frame) : 2.355
Stream size : 1.59 GiB (99%)
Title : Core Media Video
Writing library : Apple
Encoded date : UTC 2017-08-29 20:21:29
Tagged date : UTC 2017-08-29 20:21:58
Color primaries : BT.709
Transfer characteristics : BT.709
Matrix coefficients : BT.709
Audio
ID : 2
Format : PCM
Format settings, Endianness : Little
Format settings, Sign : Signed
Codec ID : lpcm
Duration : 27s 375ms
Bit rate mode : Constant
Bit rate : 2 304 Kbps
Channel(s) : 2 channels
Channel positions : Front: L R
Sampling rate : 48.0 KHz
Bit depth : 24 bits
Stream size : 7.52 MiB (0%)
Title : Core Media Audio
Encoded date : UTC 2017-08-29 20:21:29
Tagged date : UTC 2017-08-29 20:21:58
Other
ID : 3
Type : Time code
Format : QuickTime TC
Duration : 27s 375ms
Time code of first frame : 00:00:00:00
Time code, striped : Yes
Title : Core Media Time Code
Encoded date : UTC 2017-08-29 20:21:29
Tagged date : UTC 2017-08-29 20:21:58
Bit rate mode : CBR

Église-St-Siméon

C$50.00Price