Format profile : QuickTime

Codec ID : qt   0000.00 (qt  )

File size : 16.6 GiB

Duration : 4mn 49s

Overall bit rate mode : Variable

Overall bit rate : 494 Mbps

Movie name : FA-GAUTHIER

Description : This video is about Untitled Project

Encoded date : UTC 2019-06-06 18:44:58

Tagged date : UTC 2019-06-06 18:52:43

Writing library : Apple QuickTime

com.apple.quicktime.keywords : 2019-06-06

com.apple.quicktime.author : David Etienne Durivage

com.apple.quicktime.title : FA-GAUTHIER

Video

ID : 2

Format : ProRes

Format version : Version 0

Format profile : 422

Codec ID : apcn

Duration : 4mn 49s

Bit rate mode : Variable

Bit rate : 491 Mbps

Width : 4 096 pixels

Height : 2 160 pixels

Display aspect ratio : 1.896

Frame rate mode : Constant

Frame rate : 23.976 (24000/1001) fps

Color space : YUV

Chroma subsampling : 4:2:2

Scan type : Progressive

Bits/(Pixel*Frame) : 2.314

Stream size : 16.6 GiB (99%)

Title : Core Media Video

Writing library : Apple

Encoded date : UTC 2019-06-06 18:44:58

Tagged date : UTC 2019-06-06 18:52:43

Color primaries : BT.709

Transfer characteristics : BT.709

Matrix coefficients : BT.709

Audio

ID : 1

Format : PCM

Format settings : Little / Signed

Codec ID : lpcm

Duration : 4mn 49s

Bit rate mode : Constant

Bit rate : 2 304 Kbps

Channel(s) : 2 channels

Channel layout : L R

Sampling rate : 48.0 KHz

Bit depth : 24 bits

Stream size : 79.6 MiB (0%)

Title : Core Media Audio

Encoded date : UTC 2019-06-06 18:44:58

Tagged date : UTC 2019-06-06 18:52:43

Other

ID : 3

Type : Time code

Format : QuickTime TC

Duration : 4mn 49s

Time code of first frame : 00:00:00:00

Time code, striped : Yes

Title : Core Media Time Code

Encoded date : UTC 2019-06-06 18:44:58

Tagged date : UTC 2019-06-06 18:52:43

F-A-GAUTHIER-BOAT

C$300.00Price