Format profile : QuickTime
Codec ID : qt   0000.00 (qt  )
File size : 3.51 GiB
Duration : 4mn 23s
Overall bit rate mode : Variable
Overall bit rate : 115 Mbps
Movie name : Fall-Horses
Description : This video is about Untitled Project 3
Encoded date : UTC 2017-09-06 23:24:25
Tagged date : UTC 2017-09-06 23:26:11
Writing library : Apple QuickTime
com.apple.quicktime.keywords : 2017-09-03
com.apple.quicktime.author : David Etienne Durivage
com.apple.quicktime.title : Fall-Horses
Video
ID : 1
Format : ProRes
Format version : Version 0
Format profile : 422
Codec ID : apcn
Duration : 4mn 23s
Bit rate mode : Variable
Bit rate : 112 Mbps
Width : 1 920 pixels
Height : 1 080 pixels
Display aspect ratio : 16:9
Frame rate mode : Constant
Frame rate : 23.976 (24000/1001) fps
Color space : YUV
Chroma subsampling : 4:2:2
Scan type : Progressive
Bits/(Pixel*Frame) : 2.257
Stream size : 3.44 GiB (98%)
Title : Core Media Video
Writing library : Apple
Encoded date : UTC 2017-09-06 23:24:25
Tagged date : UTC 2017-09-06 23:26:11
Color primaries : BT.709
Transfer characteristics : BT.709
Matrix coefficients : BT.709
matrix_coefficients_Original : BT.709
Audio
ID : 2
Format : PCM
Format settings : Little / Signed
Format settings, Endianness : Little
Format settings, Sign : Signed
Codec ID : lpcm
Duration : 4mn 23s
Bit rate mode : Constant
Bit rate : 2 304 Kbps
Channel(s) : 2 channels
Channel positions : Front: L R
Sampling rate : 48.0 KHz
Bit depth : 24 bits
Stream size : 72.3 MiB (2%)
Title : Core Media Audio
Encoded date : UTC 2017-09-06 23:24:25
Tagged date : UTC 2017-09-06 23:26:11
Other
ID : 3
Type : Time code
Format : QuickTime TC
Duration : 4mn 23s
Time code of first frame : 00:00:00:00
Time code, striped : Yes
Title : Core Media Time Code
Encoded date : UTC 2017-09-06 23:24:25
Tagged date : UTC 2017-09-06 23:26:11
Bit rate mode : CBR

Fall-Horses

C$150.00Price