Format profile : QuickTime
Codec ID : qt   0000.00 (qt  )
File size : 2.10 GiB
Duration : 41s 583ms
Overall bit rate mode : Variable
Overall bit rate : 433 Mbps
Movie name : FATBICK-GREEN-GRASS
Description : This video is about Untitled Project
Encoded date : UTC 2017-10-15 02:24:47
Tagged date : UTC 2017-10-15 02:25:22
Writing library : Apple QuickTime
com.apple.quicktime.keywords : ski
com.apple.quicktime.author : David Etienne Durivage
com.apple.quicktime.title : FATBICK-GREEN-GRASS
Video
ID : 1
Format : ProRes
Format version : Version 0
Format profile : 422
Codec ID : apcn
Duration : 41s 583ms
Bit rate mode : Variable
Bit rate : 431 Mbps
Width : 3 840 pixels
Height : 2 160 pixels
Display aspect ratio : 16:9
Frame rate mode : Constant
Frame rate : 23.976 (24000/1001) fps
Color space : YUV
Chroma subsampling : 4:2:2
Scan type : Progressive
Bits/(Pixel*Frame) : 2.165
Stream size : 2.08 GiB (99%)
Title : Core Media Video
Writing library : Apple
Encoded date : UTC 2017-10-15 02:24:48
Tagged date : UTC 2017-10-15 02:25:22
Color primaries : BT.709
Transfer characteristics : BT.709
Matrix coefficients : BT.709
Audio
ID : 2
Format : PCM
Format settings : Little / Signed
Format settings, Endianness : Little
Format settings, Sign : Signed
Codec ID : lpcm
Duration : 41s 583ms
Bit rate mode : Constant
Bit rate : 2 304 Kbps
Channel(s) : 2 channels
Channel positions : Front: L R
Sampling rate : 48.0 KHz
Bit depth : 24 bits
Stream size : 11.4 MiB (1%)
Title : Core Media Audio
Encoded date : UTC 2017-10-15 02:24:48
Tagged date : UTC 2017-10-15 02:25:22
Other
ID : 3
Type : Time code
Format : QuickTime TC
Duration : 41s 583ms
Time code of first frame : 00:00:00:00
Time code, striped : Yes
Title : Core Media Time Code
Encoded date : UTC 2017-10-15 02:24:48
Tagged date : UTC 2017-10-15 02:25:22
Bit rate mode : CBR

FATBICK-GREEN-GRASS

C$150.00Price