Format profile : QuickTime
Codec ID : qt   0000.00 (qt  )
File size : 2.58 GiB
Duration : 47s 548ms
Overall bit rate mode : Variable
Overall bit rate : 465 Mbps
Movie name : From-Griffin-Town
Description : This video is about Untitled Project
Encoded date : UTC 2017-09-20 02:26:49
Tagged date : UTC 2017-09-20 02:27:30
Writing library : Apple QuickTime
com.apple.quicktime.keywords : bic
com.apple.quicktime.author : David Etienne Durivage
com.apple.quicktime.title : From-Griffin-Town
Video
ID : 1
Format : ProRes
Format version : Version 0
Format profile : 422
Codec ID : apcn
Duration : 47s 548ms
Bit rate mode : Variable
Bit rate : 463 Mbps
Width : 3 840 pixels
Height : 2 160 pixels
Display aspect ratio : 16:9
Frame rate mode : Constant
Frame rate : 23.976 (24000/1001) fps
Color space : YUV
Chroma subsampling : 4:2:2
Scan type : Progressive
Bits/(Pixel*Frame) : 2.326
Stream size : 2.56 GiB (99%)
Title : Core Media Video
Writing library : Apple
Encoded date : UTC 2017-09-20 02:26:49
Tagged date : UTC 2017-09-20 02:27:30
Color primaries : BT.709
Transfer characteristics : BT.709
Matrix coefficients : BT.709
Audio
ID : 2
Format : PCM
Format settings, Endianness : Little
Format settings, Sign : Signed
Codec ID : lpcm
Duration : 47s 548ms
Bit rate mode : Constant
Bit rate : 2 304 Kbps
Channel(s) : 2 channels
Channel positions : Front: L R
Sampling rate : 48.0 KHz
Bit depth : 24 bits
Stream size : 13.1 MiB (0%)
Title : Core Media Audio
Encoded date : UTC 2017-09-20 02:26:49
Tagged date : UTC 2017-09-20 02:27:30
Other
ID : 3
Type : Time code
Format : QuickTime TC
Duration : 47s 548ms
Time code of first frame : 00:00:00:00
Time code, striped : Yes
Title : Core Media Time Code
Encoded date : UTC 2017-09-20 02:26:50
Tagged date : UTC 2017-09-20 02:27:30
Bit rate mode : CBR

From-Griffin-Town

C$100.00Price