Format profile : QuickTime
Codec ID : qt   0000.00 (qt  )
File size : 5.45 GiB
Duration : 1mn 9s
Overall bit rate mode : Variable
Overall bit rate : 676 Mbps
Encoded date : UTC 2017-12-16 13:24:27
Tagged date : UTC 2017-12-16 13:25:51
Writing library : Apple QuickTime
Video
ID : 1
Format : ProRes
Format version : Version 0
Format profile : 422 HQ
Codec ID : apch
Duration : 1mn 9s
Bit rate mode : Variable
Bit rate : 674 Mbps
Width : 3 840 pixels
Height : 2 160 pixels
Display aspect ratio : 16:9
Frame rate mode : Constant
Frame rate : 23.976 (24000/1001) fps
Color space : YUV
Chroma subsampling : 4:2:2
Scan type : Progressive
Bits/(Pixel*Frame) : 3.390
Stream size : 5.44 GiB (100%)
Title : Core Media Video
Writing library : abm0
Encoded date : UTC 2017-12-16 13:24:27
Tagged date : UTC 2017-12-16 13:25:51
Color primaries : BT.709
Transfer characteristics : BT.709
Matrix coefficients : BT.709
Audio
ID : 2
Format : PCM
Format settings : Little / Signed
Codec ID : lpcm
Duration : 1mn 9s
Bit rate mode : Constant
Bit rate : 1 536 Kbps
Channel(s) : 2 channels
Channel positions : Front: L R
Sampling rate : 48.0 KHz
Bit depth : 16 bits
Stream size : 12.7 MiB (0%)
Title : Core Media Audio
Encoded date : UTC 2017-12-16 13:24:27
Tagged date : UTC 2017-12-16 13:25:51
Other
ID : 3
Type : Time code
Format : QuickTime TC
Duration : 1mn 9s
Time code of first frame : 16:31:39:12
Time code, striped : Yes
Title : Core Media Time Code
Encoded date : UTC 2017-12-16 13:24:27
Tagged date : UTC 2017-12-16 13:25:51

Grande Roue de Montréal 1

C$200.00Price