Format profile : QuickTime
Codec ID : qt   0000.00 (qt  )
File size : 2.19 GiB
Duration : 28s 654ms
Overall bit rate mode : Variable
Overall bit rate : 658 Mbps
Encoded date : UTC 2017-12-16 13:20:38
Tagged date : UTC 2017-12-16 13:21:11
Writing library : Apple QuickTime
Video
ID : 1
Format : ProRes
Format version : Version 0
Format profile : 422 HQ
Codec ID : apch
Duration : 28s 654ms
Bit rate mode : Variable
Bit rate : 656 Mbps
Width : 3 840 pixels
Height : 2 160 pixels
Display aspect ratio : 16:9
Frame rate mode : Constant
Frame rate : 23.976 (24000/1001) fps
Color space : YUV
Chroma subsampling : 4:2:2
Scan type : Progressive
Bits/(Pixel*Frame) : 3.300
Stream size : 2.19 GiB (100%)
Title : Core Media Video
Writing library : abm0
Encoded date : UTC 2017-12-16 13:20:38
Tagged date : UTC 2017-12-16 13:21:11
Color primaries : BT.709
Transfer characteristics : BT.709
Matrix coefficients : BT.709
Audio
ID : 2
Format : PCM
Format settings : Little / Signed
Codec ID : lpcm
Duration : 28s 654ms
Bit rate mode : Constant
Bit rate : 1 536 Kbps
Channel(s) : 2 channels
Channel positions : Front: L R
Sampling rate : 48.0 KHz
Bit depth : 16 bits
Stream size : 5.25 MiB (0%)
Title : Core Media Audio
Encoded date : UTC 2017-12-16 13:20:38
Tagged date : UTC 2017-12-16 13:21:11
Other
ID : 3
Type : Time code
Format : QuickTime TC
Duration : 28s 654ms
Time code of first frame : 16:33:11:00
Time code, striped : Yes
Title : Core Media Time Code
Encoded date : UTC 2017-12-16 13:20:38
Tagged date : UTC 2017-12-16 13:21:11

Grande-Roue-de-Montreal-2

C$200.00Price