Format : MPEG-4
Format profile : QuickTime
Codec ID : qt   0000.00 (qt  )
File size : 3.15 GiB
Duration : 59s 434ms
Overall bit rate mode : Variable
Overall bit rate : 455 Mbps
Movie name : Hotel-Universel-Rivière-du-loup
Description : This video is about stock-m.tv-2018
Encoded date : UTC 2018-04-09 14:06:21
Tagged date : UTC 2018-04-09 14:06:58
Writing library : Apple QuickTime
com.apple.quicktime.keywords : 2018-04-09
com.apple.quicktime.author : David Etienne Durivage
com.apple.quicktime.title : Hotel-Universel-Rivière-du-loup
Video
ID : 2
Format : ProRes
Format version : Version 0
Format profile : 422
Codec ID : apcn
Duration : 59s 434ms
Bit rate mode : Variable
Bit rate : 452 Mbps
Width : 3 840 pixels
Height : 2 160 pixels
Display aspect ratio : 16:9
Frame rate mode : Constant
Frame rate : 23.976 (24000/1001) fps
Color space : YUV
Chroma subsampling : 4:2:2
Scan type : Progressive
Bits/(Pixel*Frame) : 2.275
Stream size : 3.13 GiB (99%)
Title : Core Media Video
Writing library : Apple
Encoded date : UTC 2018-04-09 14:06:21
Tagged date : UTC 2018-04-09 14:06:58
Color primaries : BT.709
Transfer characteristics : BT.709
Matrix coefficients : BT.709
Audio
ID : 1
Format : PCM
Format settings : Little / Signed
Codec ID : lpcm
Duration : 59s 434ms
Bit rate mode : Constant
Bit rate : 2 304 Kbps
Channel(s) : 2 channels
Channel layout : L R
Sampling rate : 48.0 KHz
Bit depth : 24 bits
Stream size : 16.3 MiB (1%)
Title : Core Media Audio
Encoded date : UTC 2018-04-09 14:06:21
Tagged date : UTC 2018-04-09 14:06:58
Other
ID : 3
Type : Time code
Format : QuickTime TC
Duration : 59s 434ms
Time code of first frame : 00:00:00:00
Time code, striped : Yes
Title : Core Media Time Code
Encoded date : UTC 2018-04-09 14:06:21
Tagged date : UTC 2018-04-09 14:06:58

Hotel-Universel-Rivière-du-loup-hiver

C$100.00Price