Format profile : QuickTime
Codec ID : qt   0000.00 (qt  )
File size : 11.2 GiB
Duration : 2mn 54s
Overall bit rate mode : Variable
Overall bit rate : 553 Mbps
Movie name : Ice-Climbing-Mont-Morency-Fall
Description : This video is about Untitled Project
Encoded date : UTC 2017-10-15 01:37:17
Tagged date : UTC 2017-10-15 01:39:47
Writing library : Apple QuickTime
com.apple.quicktime.keywords : ski
com.apple.quicktime.author : David Etienne Durivage
com.apple.quicktime.title : Ice-Climbing-Mont-Morency-Fall
Video
ID : 1
Format : ProRes
Format version : Version 0
Format profile : 422
Codec ID : apcn
Duration : 2mn 54s
Bit rate mode : Variable
Bit rate : 550 Mbps
Width : 3 840 pixels
Height : 2 160 pixels
Display aspect ratio : 16:9
Frame rate mode : Constant
Frame rate : 29.970 (30000/1001) fps
Color space : YUV
Chroma subsampling : 4:2:2
Scan type : Progressive
Bits/(Pixel*Frame) : 2.212
Stream size : 11.1 GiB (99%)
Title : Core Media Video
Writing library : Apple
Encoded date : UTC 2017-10-15 01:37:17
Tagged date : UTC 2017-10-15 01:39:47
Color primaries : BT.709
Transfer characteristics : BT.709
Matrix coefficients : BT.709
Audio
ID : 2
Format : PCM
Format settings, Endianness : Little
Format settings, Sign : Signed
Codec ID : lpcm
Duration : 2mn 54s
Bit rate mode : Constant
Bit rate : 2 304 Kbps
Channel(s) : 2 channels
Channel positions : Front: L R
Sampling rate : 48.0 KHz
Bit depth : 24 bits
Stream size : 47.8 MiB (0%)
Title : Core Media Audio
Encoded date : UTC 2017-10-15 01:37:17
Tagged date : UTC 2017-10-15 01:39:47
Other
ID : 3
Type : Time code
Format : QuickTime TC
Duration : 2mn 54s
Time code of first frame : 00:00:00;00
Time code, striped : Yes
Title : Core Media Time Code
Encoded date : UTC 2017-10-15 01:37:17
Tagged date : UTC 2017-10-15 01:39:47
Bit rate mode : CBR

Ice-Climbing-Mont-Morency-Fall

C$200.00Price