Format profile : QuickTime
Codec ID : qt   0000.00 (qt  )
File size : 10.6 GiB
Duration : 3mn 20s
Overall bit rate mode : Variable
Overall bit rate : 451 Mbps
Movie name : Iles-Aux-Lièvres-1
Description : This video is about Mont-Artabaska
Encoded date : UTC 2017-09-21 17:08:55
Tagged date : UTC 2017-09-21 17:10:57
Writing library : Apple QuickTime
com.apple.quicktime.keywords : coulée
com.apple.quicktime.author : David Etienne Durivage
com.apple.quicktime.title : Iles-Aux-Lièvres-1
Video
ID : 1
Format : ProRes
Format version : Version 0
Format profile : 422
Codec ID : apcn
Duration : 3mn 20s
Bit rate mode : Variable
Bit rate : 449 Mbps
Width : 3 840 pixels
Height : 2 160 pixels
Display aspect ratio : 16:9
Frame rate mode : Constant
Frame rate : 23.976 (24000/1001) fps
Color space : YUV
Chroma subsampling : 4:2:2
Scan type : Progressive
Bits/(Pixel*Frame) : 2.256
Stream size : 10.5 GiB (99%)
Title : Core Media Video
Writing library : Apple
Encoded date : UTC 2017-09-21 17:08:55
Tagged date : UTC 2017-09-21 17:10:57
Color primaries : BT.709
Transfer characteristics : BT.709
Matrix coefficients : BT.709
matrix_coefficients_Original : BT.709
Audio
ID : 2
Format : PCM
Format settings, Endianness : Little
Format settings, Sign : Signed
Codec ID : lpcm
Duration : 3mn 20s
Bit rate mode : Constant
Bit rate : 2 304 Kbps
Channel(s) : 2 channels
Channel positions : Front: L R
Sampling rate : 48.0 KHz
Bit depth : 24 bits
Stream size : 55.2 MiB (1%)
Title : Core Media Audio
Encoded date : UTC 2017-09-21 17:08:55
Tagged date : UTC 2017-09-21 17:10:57
Other
ID : 3
Type : Time code
Format : QuickTime TC
Duration : 3mn 20s
Time code of first frame : 00:00:00:00
Time code, striped : Yes
Title : Core Media Time Code
Encoded date : UTC 2017-09-21 17:08:56
Tagged date : UTC 2017-09-21 17:10:57
Bit rate mode : CBR

Iles-Aux-Lièvres-1

C$50.00Price