Format profile : QuickTime
Codec ID : qt   0000.00 (qt  )
File size : 15.9 GiB
Duration : 8mn 13s
Overall bit rate mode : Variable
Overall bit rate : 277 Mbps
Movie name : idm2
Description : Cette vidéo traite de idm2
Encoded date : UTC 2014-06-28 18:40:34
Tagged date : UTC 2014-06-28 18:46:49
Writing library : Apple QuickTime
com.apple.quicktime.keywords : test
com.apple.quicktime.author : David
com.apple.quicktime.title : idm2
Video
ID : 1
Format : ProRes
Format version : Version 0
Format profile : 422
Codec ID : apcn
Duration : 8mn 13s
Bit rate mode : Variable
Bit rate : 274 Mbps
Width : 1 920 pixels
Height : 1 080 pixels
Display aspect ratio : 16:9
Frame rate mode : Constant
Frame rate : 60.000 fps
Color space : YUV
Chroma subsampling : 4:2:2
Scan type : Progressive
Bits/(Pixel*Frame) : 2.204
Stream size : 15.8 GiB (99%)
Title : Core Media Video
Writing library : Apple
Encoded date : UTC 2014-06-28 18:40:35
Tagged date : UTC 2014-06-28 18:46:49
Color primaries : BT.709
Transfer characteristics : BT.709
Matrix coefficients : BT.709
Audio
ID : 2
Format : PCM
Format settings, Endianness : Little
Format settings, Sign : Signed
Codec ID : in24
Duration : 8mn 13s
Bit rate mode : Constant
Bit rate : 2 304 Kbps
Channel(s) : 2 channels
Channel positions : Front: L R
Sampling rate : 48.0 KHz
Bit depth : 24 bits
Stream size : 136 MiB (1%)
Title : Core Media Audio
Encoded date : UTC 2014-06-28 18:40:35
Tagged date : UTC 2014-06-28 18:46:49
Other
ID : 3
Type : Time code
Format : QuickTime TC
Duration : 8mn 13s
Time code of first frame : 00:00:00:00
Time code, striped : Yes
Title : Core Media Time Code
Encoded date : UTC 2014-06-28 18:40:35
Tagged date : UTC 2014-06-28 18:46:49

Iles de La Madeleine

C$100.00Price