Format profile : QuickTime
Codec ID : qt   0000.00 (qt  )
File size : 6.58 GiB
Duration : 2mn 3s
Overall bit rate mode : Variable
Overall bit rate : 456 Mbps
Movie name : Temiscouata
Description : This video is about Temiscouata
Encoded date : UTC 2017-09-21 15:25:22
Tagged date : UTC 2017-09-21 15:27:16
Writing library : Apple QuickTime
com.apple.quicktime.keywords : temiscouata
com.apple.quicktime.author : David Etienne Durivage
com.apple.quicktime.title : Temiscouata
Video
ID : 1
Format : ProRes
Format version : Version 0
Format profile : 422
Codec ID : apcn
Duration : 2mn 3s
Bit rate mode : Variable
Bit rate : 453 Mbps
Width : 3 840 pixels
Height : 2 160 pixels
Display aspect ratio : 16:9
Frame rate mode : Constant
Frame rate : 23.976 (24000/1001) fps
Color space : YUV
Chroma subsampling : 4:2:2
Scan type : Progressive
Bits/(Pixel*Frame) : 2.279
Stream size : 6.54 GiB (99%)
Title : Core Media Video
Writing library : Apple
Encoded date : UTC 2017-09-21 15:25:23
Tagged date : UTC 2017-09-21 15:27:16
Color primaries : BT.709
Transfer characteristics : BT.709
Matrix coefficients : BT.709
Audio
ID : 2
Format : PCM
Format settings, Endianness : Little
Format settings, Sign : Signed
Codec ID : lpcm
Duration : 2mn 3s
Bit rate mode : Constant
Bit rate : 2 304 Kbps
Channel(s) : 2 channels
Channel positions : Front: L R
Sampling rate : 48.0 KHz
Bit depth : 24 bits
Stream size : 34.0 MiB (1%)
Title : Core Media Audio
Encoded date : UTC 2017-09-21 15:25:23
Tagged date : UTC 2017-09-21 15:27:16
Other
ID : 3
Type : Time code
Format : QuickTime TC
Duration : 2mn 3s
Time code of first frame : 00:00:00:00
Time code, striped : Yes
Title : Core Media Time Code
Encoded date : UTC 2017-09-21 15:25:23
Tagged date : UTC 2017-09-21 15:27:16
Bit rate mode : CBR

Lac-Temiscouata

C$150.00Price