Format profile : QuickTime
Codec ID : qt   0000.00 (qt  )
File size : 2.96 GiB
Duration : 44s 878ms
Overall bit rate mode : Variable
Overall bit rate : 566 Mbps
Movie name : Mont-St-Anne
Description : This video is about Untitled Project
Encoded date : UTC 2017-10-15 01:47:57
Tagged date : UTC 2017-10-15 01:48:20
Writing library : Apple QuickTime
com.apple.quicktime.keywords : ski
com.apple.quicktime.author : David Etienne Durivage
com.apple.quicktime.title : Mont-St-Anne
Video
ID : 1
Format : ProRes
Format version : Version 0
Format profile : 422
Codec ID : apcn
Duration : 44s 878ms
Bit rate mode : Variable
Bit rate : 564 Mbps
Width : 3 840 pixels
Height : 2 160 pixels
Display aspect ratio : 16:9
Frame rate mode : Constant
Frame rate : 29.970 (30000/1001) fps
Color space : YUV
Chroma subsampling : 4:2:2
Scan type : Progressive
Bits/(Pixel*Frame) : 2.267
Stream size : 2.94 GiB (100%)
Title : Core Media Video
Writing library : Apple
Encoded date : UTC 2017-10-15 01:47:57
Tagged date : UTC 2017-10-15 01:48:20
Color primaries : BT.709
Transfer characteristics : BT.709
Matrix coefficients : BT.709
matrix_coefficients_Original : BT.709
Audio
ID : 2
Format : PCM
Format settings, Endianness : Little
Format settings, Sign : Signed
Codec ID : lpcm
Duration : 44s 878ms
Bit rate mode : Constant
Bit rate : 2 304 Kbps
Channel(s) : 2 channels
Channel positions : Front: L R
Sampling rate : 48.0 KHz
Bit depth : 24 bits
Stream size : 12.3 MiB (0%)
Title : Core Media Audio
Encoded date : UTC 2017-10-15 01:47:57
Tagged date : UTC 2017-10-15 01:48:20
Other
ID : 3
Type : Time code
Format : QuickTime TC
Duration : 44s 878ms
Time code of first frame : 00:00:00;00
Time code, striped : Yes
Title : Core Media Time Code
Encoded date : UTC 2017-10-15 01:47:57
Tagged date : UTC 2017-10-15 01:48:20
Bit rate mode : CBR

Mont-St-Anne

C$200.00Price