Format profile : QuickTime
Codec ID : qt   0000.00 (qt  )
File size : 2.06 GiB
Duration : 37s 287ms
Overall bit rate mode : Variable
Overall bit rate : 474 Mbps
Movie name : Montreal Centre-Ville-Vu-de-Bassin Peel
Description : This video is about Untitled Project 2
Encoded date : UTC 2017-08-25 17:48:28
Tagged date : UTC 2017-08-25 17:48:50
Writing library : Apple QuickTime
com.apple.quicktime.keywords : ville
com.apple.quicktime.author : David Etienne Durivage
com.apple.quicktime.title : Montreal Centre-Ville-Vu-de-Bassin Peel
Video
ID : 1
Format : ProRes
Format version : Version 0
Format profile : 422
Codec ID : apcn
Duration : 37s 287ms
Bit rate mode : Variable
Bit rate : 471 Mbps
Width : 3 840 pixels
Height : 2 160 pixels
Display aspect ratio : 16:9
Frame rate mode : Constant
Frame rate : 23.976 (24000/1001) fps
Color space : YUV
Chroma subsampling : 4:2:2
Scan type : Progressive
Bits/(Pixel*Frame) : 2.370
Stream size : 2.05 GiB (99%)
Title : Core Media Video
Writing library : Apple
Encoded date : UTC 2017-08-25 17:48:29
Tagged date : UTC 2017-08-25 17:48:50
Color primaries : BT.709
Transfer characteristics : BT.709
Matrix coefficients : BT.709
Audio
ID : 2
Format : PCM
Format settings, Endianness : Little
Format settings, Sign : Signed
Codec ID : lpcm
Duration : 37s 287ms
Bit rate mode : Constant
Bit rate : 2 304 Kbps
Channel(s) : 2 channels
Channel positions : Front: L R
Sampling rate : 48.0 KHz
Bit depth : 24 bits
Stream size : 10.2 MiB (0%)
Title : Core Media Audio
Encoded date : UTC 2017-08-25 17:48:29
Tagged date : UTC 2017-08-25 17:48:50
Other
ID : 3
Type : Time code
Format : QuickTime TC
Duration : 37s 287ms
Time code of first frame : 00:00:00:00
Time code, striped : Yes
Title : Core Media Time Code
Encoded date : UTC 2017-08-25 17:48:29
Tagged date : UTC 2017-08-25 17:48:50
Bit rate mode : CBR

Montreal Centre-Ville Vu du bassin Peel

C$100.00Price