Format profile : QuickTime
Codec ID : qt   0000.00 (qt  )
File size : 10.2 GiB
Duration : 3mn 16s
Overall bit rate mode : Variable
Overall bit rate : 445 Mbps
Movie name : MONTREAL-NIGHT-3
Description : This video is about MTL-3
Encoded date : UTC 2017-12-01 02:35:12
Tagged date : UTC 2017-12-01 02:36:18
Writing library : Apple QuickTime
com.apple.quicktime.keywords : 2017-11-30,montreal-night-3
com.apple.quicktime.author : David Etienne Durivage
com.apple.quicktime.title : MONTREAL-NIGHT-3
Video
ID : 1
Format : ProRes
Format version : Version 0
Format profile : 422
Codec ID : apcn
Duration : 3mn 16s
Bit rate mode : Variable
Bit rate : 443 Mbps
Width : 3 840 pixels
Height : 2 160 pixels
Display aspect ratio : 16:9
Frame rate mode : Constant
Frame rate : 23.976 (24000/1001) fps
Color space : YUV
Chroma subsampling : 4:2:2
Scan type : Progressive
Bits/(Pixel*Frame) : 2.226
Stream size : 10.1 GiB (99%)
Title : Core Media Video
Writing library : Apple
Encoded date : UTC 2017-12-01 02:35:13
Tagged date : UTC 2017-12-01 02:36:18
Color primaries : BT.709
Transfer characteristics : BT.709
Matrix coefficients : BT.709
Audio
ID : 2
Format : PCM
Format settings : Little / Signed
Codec ID : lpcm
Duration : 3mn 16s
Bit rate mode : Constant
Bit rate : 2 304 Kbps
Channel(s) : 2 channels
Channel positions : Front: L R
Sampling rate : 48.0 KHz
Bit depth : 24 bits
Stream size : 53.9 MiB (1%)
Title : Core Media Audio
Encoded date : UTC 2017-12-01 02:35:13
Tagged date : UTC 2017-12-01 02:36:18
Other
ID : 3
Type : Time code
Format : QuickTime TC
Duration : 3mn 16s
Time code of first frame : 00:00:00:00
Time code, striped : Yes
Title : Core Media Time Code
Encoded date : UTC 2017-12-01 02:35:13
Tagged date : UTC 2017-12-01 02:36:18
Bit rate mode : CBR

MONTREAL-NIGHT-3

C$450.00Price