Format                                   : MPEG-4
Format profile                           : QuickTime
Codec ID                                 : qt   0000.00 (qt  )
File size                                : 2.24 GiB
Duration                                 : 29s 154ms
Overall bit rate mode                    : Variable
Overall bit rate                         : 659 Mbps
Encoded date                             : UTC 2019-08-06 14:38:50
Tagged date                              : UTC 2019-08-06 14:49:25
Writing library                          : Apple QuickTime

Video
ID                                       : 1
Format                                   : ProRes
Format version                           : Version 0
Format profile                           : 422 HQ
Codec ID                                 : apch
Duration                                 : 29s 154ms
Bit rate mode                            : Variable
Bit rate                                 : 658 Mbps
Width                                    : 4 096 pixels
Height                                   : 2 048 pixels
Display aspect ratio                     : 2.000
Frame rate mode                          : Constant
Frame rate                               : 23.976 (24000/1001) fps
Color space                              : YUV
Chroma subsampling                       : 4:2:2
Scan type                                : Progressive
Bits/(Pixel*Frame)                       : 3.270
Stream size                              : 2.23 GiB (100%)
Title                                    : Core Media Video
Writing library                          : abm0
Encoded date                             : UTC 2019-08-06 14:38:50
Tagged date                              : UTC 2019-08-06 14:49:25
Color primaries                          : BT.709
Transfer characteristics                 : BT.709
Matrix coefficients                      : BT.709

Audio
ID                                       : 2
Format                                   : PCM
Format settings                          : Little / Signed
Codec ID                                 : lpcm
Duration                                 : 29s 154ms
Bit rate mode                            : Constant
Bit rate                                 : 1 536 Kbps
Channel(s)                               : 2 channels
Channel layout                           : L R
Sampling rate                            : 48.0 KHz
Bit depth                                : 16 bits
Stream size                              : 5.34 MiB (0%)
Title                                    : Core Media Audio
Encoded date                             : UTC 2019-08-06 14:38:50
Tagged date                              : UTC 2019-08-06 14:49:25

Other
ID                                       : 3
Type                                     : Time code
Format                                   : QuickTime TC
Duration                                 : 29s 154ms
Frame rate                               : 23.976 (24000/1001) fps
Time code of first frame                 : 00:00:08:05
Time code, striped                       : Yes
Title                                    : Core Media Time Code
Encoded date                             : UTC 2019-08-06 14:38:50
Tagged date                              : UTC 2019-08-06 14:49:25

 

Montreal-Night-Light-Beam

C$300.00Prix