Format : MPEG-4
Format profile : QuickTime
Codec ID : qt   0000.00 (qt  )
File size : 2.56 GiB
Duration : 3mn 28s
Overall bit rate mode : Variable
Overall bit rate : 105 Mbps
Movie name : motoneige-gouv
Description : This video is about motoneige-gouv
Encoded date : UTC 2018-12-18 19:14:50
Tagged date : UTC 2018-12-18 19:15:19
Writing library : Apple QuickTime
com.apple.quicktime.keywords : 2018-12-18
com.apple.quicktime.author : David Etienne Durivage
com.apple.quicktime.title : motoneige-gouv
Video
ID : 2
Format : ProRes
Format version : Version 0
Format profile : 422
Codec ID : apcn
Duration : 3mn 28s
Bit rate mode : Variable
Bit rate : 103 Mbps
Width : 1 920 pixels
Height : 1 080 pixels
Display aspect ratio : 16:9
Frame rate mode : Constant
Frame rate : 23.976 (24000/1001) fps
Color space : YUV
Chroma subsampling : 4:2:2
Scan type : Progressive
Bits/(Pixel*Frame) : 2.068
Stream size : 2.50 GiB (97%)
Title : Core Media Video
Writing library : Apple
Encoded date : UTC 2018-12-18 19:14:50
Tagged date : UTC 2018-12-18 19:15:19
Color primaries : BT.709
Transfer characteristics : BT.709
Matrix coefficients : BT.709
Audio
ID : 1
Format : PCM
Format settings : Little / Signed
Codec ID : lpcm
Duration : 3mn 28s
Bit rate mode : Constant
Bit rate : 2 304 Kbps
Channel(s) : 2 channels
Channel layout : L R
Sampling rate : 48.0 KHz
Bit depth : 24 bits
Stream size : 57.3 MiB (2%)
Title : Core Media Audio
Encoded date : UTC 2018-12-18 19:14:50
Tagged date : UTC 2018-12-18 19:15:19
Other
ID : 3
Type : Time code
Format : QuickTime TC
Duration : 3mn 28s
Time code of first frame : 00:00:00:00
Time code, striped : Yes
Title : Core Media Time Code
Encoded date : UTC 2018-12-18 19:14:50
Tagged date : UTC 2018-12-18 19:15:19

motoneige-mix

C$500.00Price