What you see is a compressed video, download the original prores file

Format profile : QuickTime
Codec ID : qt   0000.00 (qt  )
File size : 11.7 GiB
Duration : 4mn 35s
Overall bit rate mode : Variable
Overall bit rate : 366 Mbps
Movie name : MTL-NIGHT-2
Description : This video is about MTL-NUIT-2
Encoded date : UTC 2017-11-30 13:06:04
Tagged date : UTC 2017-11-30 13:07:35
Writing library : Apple QuickTime
com.apple.quicktime.keywords : 2017-11-29,2,mtl-nov-prores
com.apple.quicktime.author : David Etienne Durivage
com.apple.quicktime.title : MTL-NIGHT-2
Video
ID : 1
Format : ProRes
Format version : Version 0
Format profile : 422
Codec ID : apcn
Duration : 4mn 35s
Bit rate mode : Variable
Bit rate : 363 Mbps
Width : 3 840 pixels
Height : 2 160 pixels
Display aspect ratio : 16:9
Frame rate mode : Constant
Frame rate : 23.976 (24000/1001) fps
Color space : YUV
Chroma subsampling : 4:2:2
Scan type : Progressive
Bits/(Pixel*Frame) : 1.827
Stream size : 11.7 GiB (99%)
Title : Core Media Video
Writing library : Apple
Encoded date : UTC 2017-11-30 13:06:04
Tagged date : UTC 2017-11-30 13:07:35
Color primaries : BT.709
Transfer characteristics : BT.709
Matrix coefficients : BT.709
Audio
ID : 2
Format : PCM
Format settings : Little / Signed
Codec ID : lpcm
Duration : 4mn 35s
Bit rate mode : Constant
Bit rate : 2 304 Kbps
Channel(s) : 2 channels
Channel positions : Front: L R
Sampling rate : 48.0 KHz
Bit depth : 24 bits
Stream size : 75.7 MiB (1%)
Title : Core Media Audio
Encoded date : UTC 2017-11-30 13:06:04
Tagged date : UTC 2017-11-30 13:07:35
Other
ID : 3
Type : Time code
Format : QuickTime TC
Duration : 4mn 35s
Time code of first frame : 00:00:00:00
Time code, striped : Yes
Title : Core Media Time Code
Encoded date : UTC 2017-11-30 13:06:04
Tagged date : UTC 2017-11-30 13:07:35
Bit rate mode : CBR

MTL-NIGHT-2

C$400.00Price