Format profile : QuickTime
Codec ID : qt   0000.00 (qt  )
File size : 7.03 GiB
Duration : 1mn 47s
Overall bit rate mode : Variable
Overall bit rate : 561 Mbps
Movie name : Parc-Jacques-Cartier-1
Description : This video is about Untitled Project
Encoded date : UTC 2017-10-15 12:46:04
Tagged date : UTC 2017-10-15 12:47:55
Writing library : Apple QuickTime
com.apple.quicktime.keywords : ski
com.apple.quicktime.author : David Etienne Durivage
com.apple.quicktime.title : Parc-Jacques-Cartier-1
Video
ID : 1
Format : ProRes
Format version : Version 0
Format profile : 422
Codec ID : apcn
Duration : 1mn 47s
Bit rate mode : Variable
Bit rate : 559 Mbps
Width : 3 840 pixels
Height : 2 160 pixels
Display aspect ratio : 16:9
Frame rate mode : Constant
Frame rate : 29.970 (30000/1001) fps
Color space : YUV
Chroma subsampling : 4:2:2
Scan type : Progressive
Bits/(Pixel*Frame) : 2.247
Stream size : 6.99 GiB (100%)
Title : Core Media Video
Writing library : Apple
Encoded date : UTC 2017-10-15 12:46:04
Tagged date : UTC 2017-10-15 12:47:55
Color primaries : BT.709
Transfer characteristics : BT.709
Matrix coefficients : BT.709
Audio
ID : 2
Format : PCM
Format settings, Endianness : Little
Format settings, Sign : Signed
Codec ID : lpcm
Duration : 1mn 47s
Bit rate mode : Constant
Bit rate : 2 304 Kbps
Channel(s) : 2 channels
Channel positions : Front: L R
Sampling rate : 48.0 KHz
Bit depth : 24 bits
Stream size : 29.5 MiB (0%)
Title : Core Media Audio
Encoded date : UTC 2017-10-15 12:46:04
Tagged date : UTC 2017-10-15 12:47:55
Other
ID : 3
Type : Time code
Format : QuickTime TC
Duration : 1mn 47s
Time code of first frame : 00:00:00;00
Time code, striped : Yes
Title : Core Media Time Code
Encoded date : UTC 2017-10-15 12:46:04
Tagged date : UTC 2017-10-15 12:47:55
Bit rate mode : CBR

Parc-Jacques-Cartier-Hiver

C$300.00Price