Format                                   : MPEG-4
Format profile                           : QuickTime
Codec ID                                 : qt   0000.00 (qt  )
File size                                : 8.69 GiB
Duration                                 : 45s 420ms
Overall bit rate mode                    : Variable
Overall bit rate                         : 1 643 Mbps
Encoded date                             : UTC 2018-08-09 14:43:31
Tagged date                              : UTC 2018-08-09 14:46:14
Writing library                          : Apple QuickTime

Video
ID                                       : 1
Format                                   : ProRes
Format version                           : Version 0
Format profile                           : 422 HQ
Codec ID                                 : apch
Duration                                 : 45s 420ms
Bit rate mode                            : Variable
Bit rate                                 : 1 642 Mbps
Width                                    : 6 016 pixels
Height                                   : 3 200 pixels
Display aspect ratio                     : 1.880
Frame rate mode                          : Constant
Frame rate                               : 23.976 (24000/1001) fps
Color space                              : YUV
Chroma subsampling                       : 4:2:2
Scan type                                : Progressive
Bits/(Pixel*Frame)                       : 3.557
Stream size                              : 8.68 GiB (100%)
Title                                    : Core Media Video
Writing library                          : abm0
Encoded date                             : UTC 2018-08-09 14:43:31
Tagged date                              : UTC 2018-08-09 14:46:14
Color primaries                          : BT.709
Transfer characteristics                 : BT.709
Matrix coefficients                      : BT.709

Audio
ID                                       : 2
Format                                   : PCM
Format settings                          : Little / Signed
Codec ID                                 : lpcm
Duration                                 : 45s 420ms
Bit rate mode                            : Constant
Bit rate                                 : 1 536 Kbps
Channel(s)                               : 2 channels
Channel layout                           : L R
Sampling rate                            : 48.0 KHz
Bit depth                                : 16 bits
Stream size                              : 8.32 MiB (0%)
Title                                    : Core Media Audio
Encoded date                             : UTC 2018-08-09 14:43:31
Tagged date                              : UTC 2018-08-09 14:46:14

Other
ID                                       : 3
Type                                     : Time code
Format                                   : QuickTime TC
Duration                                 : 45s 420ms
Frame rate                               : 23.976 (24000/1001) fps
Time code of first frame                 : 17:47:46:00
Time code, striped                       : Yes
Title                                    : Core Media Time Code
Encoded date                             : UTC 2018-08-09 14:43:31
Tagged date                              : UTC 2018-08-09 14:46:14

 

pont-JC-vers-Est-Foggy

C$300.00Prix