Format : MPEG-4
Format profile : QuickTime
Codec ID : qt   0000.00 (qt  )
File size : 8.71 GiB
Duration : 45s 420ms
Overall bit rate mode : Variable
Overall bit rate : 1 647 Mbps
Movie name : Untitled Project
Description : This video is about Untitled Project
Encoded date : UTC 2018-10-06 23:45:12
Tagged date : UTC 2018-10-06 23:46:25
Writing library : Apple QuickTime
com.apple.quicktime.keywords : 2018-10-03
com.apple.quicktime.author : David Etienne Durivage
com.apple.quicktime.title : Untitled Project
Video
ID : 2
Format : ProRes
Format version : Version 0
Format profile : 422 HQ
Codec ID : apch
Duration : 45s 420ms
Bit rate mode : Variable
Bit rate : 1 645 Mbps
Width : 6 016 pixels
Height : 3 200 pixels
Display aspect ratio : 1.880
Frame rate mode : Constant
Frame rate : 23.976 (24000/1001) fps
Color space : YUV
Chroma subsampling : 4:2:2
Scan type : Progressive
Bits/(Pixel*Frame) : 3.563
Stream size : 8.70 GiB (100%)
Title : Core Media Video
Writing library : Apple
Encoded date : UTC 2018-10-06 23:45:12
Tagged date : UTC 2018-10-06 23:46:25
Color primaries : BT.709
Transfer characteristics : BT.709
Matrix coefficients : BT.709
Audio
ID : 1
Format : PCM
Format settings : Little / Signed
Codec ID : lpcm
Duration : 45s 420ms
Bit rate mode : Constant
Bit rate : 2 304 Kbps
Channel(s) : 2 channels
Channel layout : L R
Sampling rate : 48.0 KHz
Bit depth : 24 bits
Stream size : 12.5 MiB (0%)
Title : Core Media Audio
Encoded date : UTC 2018-10-06 23:45:12
Tagged date : UTC 2018-10-06 23:46:25
Other
ID : 3
Type : Time code
Format : QuickTime TC
Duration : 45s 420ms
Time code of first frame : 00:00:00:00
Time code, striped : Yes
Title : Core Media Time Code
Encoded date : UTC 2018-10-06 23:45:12
Tagged date : UTC 2018-10-06 23:46:25

razmotte-fleuve-centreville

C$250.00Price