Format profile                           : QuickTime
Codec ID                                 : qt   0000.00 (qt  )
File size                                : 4.10 GiB
Duration                                 : 4mn 9s
Overall bit rate mode                    : Variable
Overall bit rate                         : 141 Mbps
Movie name                               : SARBAYA
Description                              : Cette vidéo traite de Projet sans titre
Encoded date                             : UTC 2016-07-13 18:42:21
Tagged date                              : UTC 2016-07-13 18:44:20
Writing library                          : Apple QuickTime
com.apple.quicktime.keywords             : SARBAIA
com.apple.quicktime.author               : David
com.apple.quicktime.title                : SARBAYA

Video
ID                                       : 1
Format                                   : ProRes
Format version                           : Version 0
Format profile                           : 422
Codec ID                                 : apcn
Duration                                 : 4mn 9s
Bit rate mode                            : Variable
Bit rate                                 : 138 Mbps
Width                                    : 1 920 pixels
Height                                   : 1 080 pixels
Display aspect ratio                     : 16:9
Frame rate mode                          : Constant
Frame rate                               : 30.000 fps
Color space                              : YUV
Chroma subsampling                       : 4:2:2
Scan type                                : Progressive
Bits/(Pixel*Frame)                       : 2.226
Stream size                              : 4.03 GiB (98%)
Title                                    : Core Media Video
Writing library                          : Apple
Encoded date                             : UTC 2016-07-13 18:42:22
Tagged date                              : UTC 2016-07-13 18:44:20
Color primaries                          : BT.709
Transfer characteristics                 : BT.709
Matrix coefficients                      : BT.709

Audio
ID                                       : 2
Format                                   : PCM
Format settings                          : Little / Signed
Codec ID                                 : lpcm
Duration                                 : 4mn 9s
Bit rate mode                            : Constant
Bit rate                                 : 2 304 Kbps
Channel(s)                               : 2 channels
Channel layout                           : L R
Sampling rate                            : 48.0 KHz
Bit depth                                : 24 bits
Stream size                              : 68.6 MiB (2%)

SARBAYA

C$400.00Price