Format                                   : MPEG-4
Format profile                           : QuickTime
Codec ID                                 : qt   0000.00 (qt  )
File size                                : 3.90 GiB
Duration                                 : 47s 839ms
Overall bit rate mode                    : Variable
Overall bit rate                         : 700 Mbps
Encoded date                             : UTC 2019-08-06 12:23:33
Tagged date                              : UTC 2019-08-06 12:24:21
Writing library                          : Apple QuickTime

Video
ID                                       : 1
Format                                   : ProRes
Format version                           : Version 0
Format profile                           : 422 HQ
Codec ID                                 : apch
Duration                                 : 47s 839ms
Bit rate mode                            : Variable
Bit rate                                 : 698 Mbps
Width                                    : 3 840 pixels
Height                                   : 2 160 pixels
Display aspect ratio                     : 16:9
Frame rate mode                          : Constant
Frame rate                               : 23.976 (24000/1001) fps
Color space                              : YUV
Chroma subsampling                       : 4:2:2
Scan type                                : Progressive
Bits/(Pixel*Frame)                       : 3.511
Stream size                              : 3.89 GiB (100%)
Title                                    : Core Media Video
Writing library                          : abm0
Encoded date                             : UTC 2019-08-06 12:23:33
Tagged date                              : UTC 2019-08-06 12:24:21
Color primaries                          : BT.709
Transfer characteristics                 : BT.709
Matrix coefficients                      : BT.709

Audio
ID                                       : 2
Format                                   : PCM
Format settings                          : Little / Signed
Codec ID                                 : lpcm
Duration                                 : 47s 839ms
Bit rate mode                            : Constant
Bit rate                                 : 1 536 Kbps
Channel(s)                               : 2 channels
Channel layout                           : L R
Sampling rate                            : 48.0 KHz
Bit depth                                : 16 bits
Stream size                              : 8.76 MiB (0%)
Title                                    : Core Media Audio
Encoded date                             : UTC 2019-08-06 12:23:33
Tagged date                              : UTC 2019-08-06 12:24:21

Other
ID                                       : 3
Type                                     : Time code
Format                                   : QuickTime TC
Duration                                 : 47s 839ms
Frame rate                               : 23.976 (24000/1001) fps
Time code of first frame                 : 00:00:15:16
Time code, striped                       : Yes
Title                                    : Core Media Time Code
Encoded date                             : UTC 2019-08-06 12:23:33
Tagged date                              : UTC 2019-08-06 12:24:21

 

Sherbrooke-Winter

C$200.00Prix