Format : MPEG-4
Format profile : QuickTime
Codec ID : qt   0000.00 (qt  )
File size : 7.92 GiB
Duration : 39s 957ms
Overall bit rate mode : Variable
Overall bit rate : 1 703 Mbps
Movie name : tour-de-déacalade
Description : This video is about Untitled Project
Encoded date : UTC 2018-10-06 23:57:34
Tagged date : UTC 2018-10-06 23:59:02
Writing library : Apple QuickTime
com.apple.quicktime.keywords : 2018-10-03
com.apple.quicktime.author : David Etienne Durivage
com.apple.quicktime.title : tour-de-déacalade
Video
ID : 2
Format : ProRes
Format version : Version 0
Format profile : 422 HQ
Codec ID : apch
Duration : 39s 957ms
Bit rate mode : Variable
Bit rate : 1 700 Mbps
Width : 6 016 pixels
Height : 3 200 pixels
Display aspect ratio : 1.880
Frame rate mode : Constant
Frame rate : 23.976 (24000/1001) fps
Color space : YUV
Chroma subsampling : 4:2:2
Scan type : Progressive
Bits/(Pixel*Frame) : 3.684
Stream size : 7.91 GiB (100%)
Title : Core Media Video
Writing library : Apple
Encoded date : UTC 2018-10-06 23:57:34
Tagged date : UTC 2018-10-06 23:59:02
Color primaries : BT.709
Transfer characteristics : BT.709
Matrix coefficients : BT.709
Audio
ID : 1
Format : PCM
Format settings : Little / Signed
Codec ID : lpcm
Duration : 39s 957ms
Bit rate mode : Constant
Bit rate : 2 304 Kbps
Channel(s) : 2 channels
Channel layout : L R
Sampling rate : 48.0 KHz
Bit depth : 24 bits
Stream size : 11.0 MiB (0%)
Title : Core Media Audio
Encoded date : UTC 2018-10-06 23:57:34
Tagged date : UTC 2018-10-06 23:59:02
Other
ID : 3
Type : Time code
Format : QuickTime TC
Duration : 39s 957ms
Time code of first frame : 00:00:00:00
Time code, striped : Yes
Title : Core Media Time Code
Encoded date : UTC 2018-10-06 23:57:34
Tagged date : UTC 2018-10-06 23:59:02

decalade-tower-montreal

C$200.00Price