Format profile                           : QuickTime
Codec ID                                 : qt   0000.00 (qt  )
File size                                : 14.7 GiB
Duration                                 : 1mn 8s
Overall bit rate mode                    : Variable
Overall bit rate                         : 1 838 Mbps
Encoded date                             : UTC 2019-07-17 17:45:33
Tagged date                              : UTC 2019-07-17 17:52:04
Writing library                          : Apple QuickTime

Video
ID                                       : 1
Format                                   : ProRes
Format version                           : Version 0
Format profile                           : 422 HQ
Codec ID                                 : apch
Duration                                 : 1mn 8s
Bit rate mode                            : Variable
Bit rate                                 : 1 837 Mbps
Width                                    : 6 016 pixels
Height                                   : 3 200 pixels
Display aspect ratio                     : 1.880
Frame rate mode                          : Constant
Frame rate                               : 29.970 (30000/1001) fps
Color space                              : YUV
Chroma subsampling                       : 4:2:2
Scan type                                : Progressive
Bits/(Pixel*Frame)                       : 3.184
Stream size                              : 14.7 GiB (100%)
Title                                    : Core Media Video
Writing library                          : abm0
Encoded date                             : UTC 2019-07-17 17:45:33
Tagged date                              : UTC 2019-07-17 17:52:04
Color primaries                          : BT.709
Transfer characteristics                 : BT.709
Matrix coefficients                      : BT.709

Audio
ID                                       : 2
Format                                   : PCM
Format settings                          : Little / Signed
Codec ID                                 : lpcm
Duration                                 : 1mn 8s
Bit rate mode                            : Constant
Bit rate                                 : 1 536 Kbps
Channel(s)                               : 2 channels
Channel layout                           : L R
Sampling rate                            : 48.0 KHz
Bit depth                                : 16 bits
Stream size                              : 12.6 MiB (0%)
Title                                    : Core Media Audio
Encoded date                             : UTC 2019-07-17 17:45:33
Tagged date                              : UTC 2019-07-17 17:52:04

Other
ID                                       : 3
Type                                     : Time code
Format                                   : QuickTime TC
Duration                                 : 1mn 8s
Frame rate                               : 29.970 (30000/1001) fps
Time code of first frame                 : 20:28:19:00
Time code, striped                       : Yes
Title                                    : Core Media Time Code
Encoded date                             : UTC 2019-07-17 17:45:33
Tagged date                              : UTC 2019-07-17 17:52:04

 

trois-rivières-3

C$350.00Price