Format : MPEG-4
Format profile : QuickTime
Codec ID : qt   0000.00 (qt  )
File size : 2.67 GiB
Duration : 52s 261ms
Overall bit rate mode : Variable
Overall bit rate : 440 Mbps
Movie name : Montréal-fall-from-mont-royal
Description : This video is about Untitled Project 1
Encoded date : UTC 2017-12-19 03:53:39
Tagged date : UTC 2017-12-19 03:54:45
Writing library : Apple QuickTime
com.apple.quicktime.keywords : U9-Fan-6
com.apple.quicktime.author : David Etienne Durivage
com.apple.quicktime.title : Montréal-fall-from-mont-royal
Video
ID : 2
Format : ProRes
Format version : Version 0
Format profile : 422
Codec ID : apcn
Duration : 52s 261ms
Bit rate mode : Variable
Bit rate : 437 Mbps
Width : 3 840 pixels
Height : 2 160 pixels
Display aspect ratio : 16:9
Frame rate mode : Constant
Frame rate : 23.976 (24000/1001) fps
Color space : YUV
Chroma subsampling : 4:2:2
Scan type : Progressive
Bits/(Pixel*Frame) : 2.197
Stream size : 2.66 GiB (99%)
Title : Core Media Video
Writing library : Apple
Encoded date : UTC 2017-12-19 03:53:39
Tagged date : UTC 2017-12-19 03:54:45
Color primaries : BT.709
Transfer characteristics : BT.709
Matrix coefficients : BT.709
Audio
ID : 1
Format : PCM
Format settings : Little / Signed
Codec ID : lpcm
Duration : 52s 261ms
Bit rate mode : Constant
Bit rate : 2 304 Kbps
Channel(s) : 2 channels
Channel layout : L R
Sampling rate : 48.0 KHz
Bit depth : 24 bits
Stream size : 14.4 MiB (1%)
Title : Core Media Audio
Encoded date : UTC 2017-12-19 03:53:39
Tagged date : UTC 2017-12-19 03:54:45
Other
ID : 3
Type : Time code
Format : QuickTime TC
Duration : 52s 261ms
Time code of first frame : 00:00:00:00
Time code, striped : Yes
Title : Core Media Time Code
Encoded date : UTC 2017-12-19 03:53:39
Tagged date : UTC 2017-12-19 03:54:45

UdeM-2

C$300.00Price