Format profile                           : QuickTime
Codec ID                                 : qt   0000.00 (qt  )
File size                                : 18.4 GiB
Duration                                 : 2mn 15s
Overall bit rate mode                    : Variable
Overall bit rate                         : 1 164 Mbps
Movie name                               : Usine-Chocolat-St-Hyacinthe
Description                              : This video is about Untitled Project
Encoded date                             : UTC 2020-04-01 03:35:31
Tagged date                              : UTC 2020-04-01 03:37:25
Writing library                          : Apple QuickTime
com.apple.quicktime.keywords             : 2020-02-15
com.apple.quicktime.author               : David Etienne Durivage
com.apple.quicktime.title                : Usine-Chocolat-St-Hyacinthe

Video
ID                                       : 2
Format                                   : ProRes
Format version                           : Version 0
Format profile                           : 422
Codec ID                                 : apcn
Duration                                 : 2mn 15s
Bit rate mode                            : Variable
Bit rate                                 : 1 160 Mbps
Width                                    : 4 096 pixels
Height                                   : 2 048 pixels
Display aspect ratio                     : 2.000
Frame rate mode                          : Constant
Frame rate                               : 59.940 (60000/1001) fps
Color space                              : YUV
Chroma subsampling                       : 4:2:2
Scan type                                : Progressive
Bits/(Pixel*Frame)                       : 2.308
Stream size                              : 18.3 GiB (100%)
Title                                    : Core Media Video
Writing library                          : Apple
Encoded date                             : UTC 2020-04-01 03:35:31
Tagged date                              : UTC 2020-04-01 03:37:25
Color primaries                          : BT.709
Transfer characteristics                 : BT.709
Matrix coefficients                      : BT.709

Audio
ID                                       : 1
Format                                   : PCM
Format settings                          : Little / Signed
Codec ID                                 : lpcm
Duration                                 : 2mn 15s
Bit rate mode                            : Constant
Bit rate                                 : 2 304 Kbps
Channel(s)                               : 2 channels
Channel layout                           : L R
Sampling rate                            : 48.0 KHz
Bit depth                                : 24 bits
Stream size                              : 37.3 MiB (0%)
Title                                    : Core Media Audio
Encoded date                             : UTC 2020-04-01 03:35:31
Tagged date                              : UTC 2020-04-01 03:37:25

Other
ID                                       : 3
Type                                     : Time code
Format                                   : QuickTime TC
Duration                                 : 2mn 15s
Frame rate                               : 59.940 (60000/1001) fps
 

Usine-Chocolat-St-Hyacinthe

C$300.00Price