Format profile : QuickTime
Codec ID : qt   0000.00 (qt  )
File size : 6.30 GiB
Duration : 59s 893ms
Overall bit rate mode : Variable
Overall bit rate : 904 Mbps
Encoded date : UTC 2017-12-16 13:25:52
Tagged date : UTC 2017-12-16 13:27:19
Writing library : Apple QuickTime
Video
ID : 1
Format : ProRes
Format version : Version 0
Format profile : 422 HQ
Codec ID : apch
Duration : 59s 893ms
Bit rate mode : Variable
Bit rate : 902 Mbps
Width : 3 840 pixels
Height : 2 160 pixels
Display aspect ratio : 16:9
Frame rate mode : Constant
Frame rate : 29.970 (30000/1001) fps
Color space : YUV
Chroma subsampling : 4:2:2
Scan type : Progressive
Bits/(Pixel*Frame) : 3.630
Stream size : 6.29 GiB (100%)
Title : Core Media Video
Writing library : abm0
Encoded date : UTC 2017-12-16 13:25:52
Tagged date : UTC 2017-12-16 13:27:19
Color primaries : BT.709
Transfer characteristics : BT.709
Matrix coefficients : BT.709
Audio
ID : 2
Format : PCM
Format settings : Little / Signed
Codec ID : lpcm
Duration : 59s 893ms
Bit rate mode : Constant
Bit rate : 1 536 Kbps
Channel(s) : 2 channels
Channel positions : Front: L R
Sampling rate : 48.0 KHz
Bit depth : 16 bits
Stream size : 11.0 MiB (0%)
Title : Core Media Audio
Encoded date : UTC 2017-12-16 13:25:52
Tagged date : UTC 2017-12-16 13:27:19
Other
ID : 3
Type : Time code
Format : QuickTime TC
Duration : 59s 893ms
Time code of first frame : 14:53:50:10
Time code, striped : Yes
Title : Core Media Time Code
Encoded date : UTC 2017-12-16 13:25:52
Tagged date : UTC 2017-12-16 13:27:19

Vieux-Montreal-hiver-2

C$200.00Price