Format profile : QuickTime
Codec ID : qt   0000.00 (qt  )
File size : 1.08 GiB
Duration : 21s 146ms
Overall bit rate mode : Variable
Overall bit rate : 439 Mbps
Movie name : zipline-1
Description : This video is about Untitled Project
Encoded date : UTC 2017-10-15 13:20:42
Tagged date : UTC 2017-10-15 13:20:59
Writing library : Apple QuickTime
com.apple.quicktime.keywords : 2017-10-15,gh4
com.apple.quicktime.author : David Etienne Durivage
com.apple.quicktime.title : zipline-1
Video
ID : 1
Format : ProRes
Format version : Version 0
Format profile : 422
Codec ID : apcn
Duration : 21s 146ms
Bit rate mode : Variable
Bit rate : 437 Mbps
Width : 3 840 pixels
Height : 2 160 pixels
Display aspect ratio : 16:9
Frame rate mode : Constant
Frame rate : 23.976 (24000/1001) fps
Color space : YUV
Chroma subsampling : 4:2:2
Scan type : Progressive
Bits/(Pixel*Frame) : 2.196
Stream size : 1.07 GiB (99%)
Title : Core Media Video
Writing library : Apple
Encoded date : UTC 2017-10-15 13:20:42
Tagged date : UTC 2017-10-15 13:20:59
Color primaries : BT.709
Transfer characteristics : BT.709
Matrix coefficients : BT.709
Audio
ID : 2
Format : PCM
Format settings : Little / Signed
Format settings, Endianness : Little
Format settings, Sign : Signed
Codec ID : lpcm
Duration : 21s 146ms
Bit rate mode : Constant
Bit rate : 2 304 Kbps
Channel(s) : 2 channels
Channel positions : Front: L R
Sampling rate : 48.0 KHz
Bit depth : 24 bits
Stream size : 5.81 MiB (1%)
Title : Core Media Audio
Encoded date : UTC 2017-10-15 13:20:42
Tagged date : UTC 2017-10-15 13:20:59
Other
ID : 3
Type : Time code
Format : QuickTime TC
Duration : 21s 146ms
Time code of first frame : 00:00:00:00
Time code, striped : Yes
Title : Core Media Time Code
Encoded date : UTC 2017-10-15 13:20:42
Tagged date : UTC 2017-10-15 13:20:59
Bit rate mode : CBR

zipline-1

C$60.00Price